<svg xmlns="http://www.w3.org/2000/svg">
<defs>
<font horiz-adv-x="1439" ><font-face
    font-family="Typo Speed Bold Demo"
    units-per-em="2048"
    panose-1="2 0 5 0 0 0 0 9 0 0"
    ascent="1943"
    descent="-531"
    alphabetic="0" />
<missing-glyph horiz-adv-x="1547" d="M100 -282V1428H1435V-282H100ZM135 -242H1399V1398H135V-242ZM725 471H728L739 470V452Q741 382 741 326L734 324H728Q725 395 725 462V465V471ZM1224 471H1225L1239 470Q1238 461 1238 457Q1238 402 1241 326L1230 324H1226Q1224
382 1223 453Q1224 465 1224 471ZM790 466H794Q794 464 801 454Q797 436 797 424V406Q797 362 812 348H813Q834 348 848 465H850Q862 461 863 461Q857 403 857 375Q857 344 869 344Q871 328 871 324H863Q850 324 843 356H842Q831 328 815 328H810Q790 328 783 389Q782
393 782 411V422Q782 447 790 466ZM1094 466H1100Q1112 466 1128 438Q1140 416 1140 394V385Q1140 348 1100 327Q1093 324 1086 324H1079Q1049 324 1044 367V376Q1044 426 1084 464Q1092 466 1094 466ZM249 462H258Q286 457 286 422Q286 388 253 373Q241 368 226
366V329H225Q220 329 211 332V366H206L201 367Q201 378 206 386H211V386Q211 427 205 427Q199 434 199 438Q217 462 249 462ZM1059 376V368Q1059 347 1084 344Q1106 344 1121 371Q1126 379 1126 389V392Q1126 419 1100 445Q1097 445 1097 447Q1080 447 1062 397Q1059
386 1059 376ZM224 435Q225 400 225 388Q226 388 226 386Q255 392 263 403Q271 413 271 421Q271 439 256 442H250Q224 439 224 435ZM404 438Q423 438 432 389Q431 389 417 385Q411 418 404 418Q387 409 384 343Q385 329 385 328Q375 326 370 326Q357 395 357 413Q369
415 372 415V414Q372 410 375 395H376Q386 438 404 438ZM537 432Q557 432 570 400Q572 391 572 383V380Q572 344 537 327Q532 326 528 326Q501 330 501 364Q501 414 526 429Q528 430 537 432ZM614 432Q633 432 650 343Q651 343 651 336Q643 329 639 329Q624 391
616 409Q607 396 598 339Q597 339 593 329H586Q579 329 577 386Q575 400 575 409Q582 411 589 411Q592 394 592 391H593Q600 432 614 432ZM1185 432Q1201 432 1220 336Q1211 329 1207 329Q1192 395 1183 409Q1177 397 1164 335Q1161 329 1160 329H1154Q1147 329

<glyph unicode=" " glyph-name="space" horiz-adv-x="692" />
<glyph unicode="!" glyph-name="exclam" horiz-adv-x="636" d="M324 851L494 1443H970L800 851L653 479H257L324 851ZM159 276H635L556 0H80L159 276Z" />
<glyph unicode="&quot;" glyph-name="quotedbl" horiz-adv-x="1023" d="M870 1443L767 1085L643 826H367L391 1085L494 1443H870ZM1357 1443L1254 1084L1130 826H854L878 1084L981 1443H1357Z" />
<glyph unicode="#" glyph-name="numbersign" horiz-adv-x="1684" d="M397 1106H635L690 1297H1065L1010 1106H1307L1362 1297H1738L1683 1106H1921L1842 830H1604L1537 597H1775L1696 321H1458L1403 130H1027L1082 321H785L730 130H355L410 321H172L251 597H489L556
830H318L397 1106ZM1228 830H931L864 597H1161L1228 830Z" />
<glyph unicode="$" glyph-name="dollar" horiz-adv-x="1667" d="M1384 1711H1551L1474 1443H1698Q1822 1443 1884 1354Q1948 1266 1912 1142L1880 1030H1404L1436 1142Q1444 1167 1419 1167H918Q893 1167 885 1142L725 584H450Q426 584 363 672Q300 760 336 885L409
1142Q445 1266 558 1354Q673 1443 797 1443H1066L1143 1711H1311L1233 1440H1306L1384 1711ZM741 -274H573L652 0H383Q259 0 195 88Q133 177 168 301L208 441H684L644 301Q637 276 662 276H1163Q1188 276 1195 301L1269 558Q1276 584 1251 584H753L1032 859H1630Q1654
859 1717 771Q1781 682 1745 558L1671 301Q1636 177 1521 88Q1408 0 1284 0H1060L981 -274H814L893 1H820L741 -274Z" />
<glyph unicode="%" glyph-name="percent" horiz-adv-x="2138" d="M2086 1443L950 0H443L1579 1443H2086ZM2022 752Q2126 752 2178 678Q2231 605 2201 500L2130 252Q2100 148 2005 74Q1910 0 1806 0H1598Q1494 0 1441 74Q1388 148 1418 252L1489 500Q1519 604 1614
678Q1710 752 1814 752H2022ZM1983 527H1723L1637 226H1897L1983 527ZM954 1443Q1058 1443 1111 1369L1110 1368Q1163 1294 1133 1190L1062 943Q1033 839 937 765V764Q842 690 738 690H530Q426 690 373 764V765Q321 839 350 943L421 1190Q451 1294 546 1368L547
1369Q642 1443 746 1443H954ZM915 1217H655L569 916H829L915 1217Z" />
<glyph unicode="&amp;" glyph-name="ampersand" horiz-adv-x="1679" d="M1286 589L1195 864H1737L1828 589H1696L1649 427Q1631 364 1664 320Q1695 276 1758 276L1679 0Q1512 0 1422 113Q1267 0 1101 0H567Q390 0 301 125Q212 251 262 427Q313 604 461 726Q383
849 431 1016Q482 1192 643 1318Q804 1443 981 1443H1515Q1645 1443 1732 1368Q1821 1294 1834 1173L1548 1072Q1539 1167 1436 1167H1102Q1039 1167 982 1123Q925 1079 907 1016Q889 953 921 909Q952 864 1015 864H1039L1130 589H936Q873 589 816 544Q759 500
738 427Q720 364 752 320Q783 276 846 276H1110Q1172 276 1230 320Q1287 364 1305 427L1352 589H1286Z" />
<glyph unicode="&apos;" glyph-name="quotesingle" horiz-adv-x="536" d="M870 1443L767 1085L643 826H367L391 1085L494 1443H870Z" />
<glyph unicode="(" glyph-name="parenleft" horiz-adv-x="623" d="M174 -100Q121 319 237 721Q352 1124 645 1543H1025Q728 1128 612 721Q484 242 564 -100H174Z" />
<glyph unicode=")" glyph-name="parenright" horiz-adv-x="623" d="M1 -100Q277 242 425 721Q541 1128 482 1543H862Q915 1124 800 721Q684 319 391 -100H1Z" />
<glyph unicode="*" glyph-name="asterisk" horiz-adv-x="1234" d="M798 1112L893 1443H1169L1074 1112L1417 1214L1427 953L1084 850L1201 583L932 421L815 689L544 421L367 583L638 850L353 953L513 1214L798 1112Z" />
<glyph unicode="+" glyph-name="plus" horiz-adv-x="1268" d="M1168 1207L1063 841H1429L1350 566H984L879 200H503L608 566H242L321 841H687L792 1207H1168Z" />
<glyph unicode="," glyph-name="comma" horiz-adv-x="436" d="M204 0H80L159 276H435L356 0L174 -286H52L204 0Z" />
<glyph unicode="-" glyph-name="hyphen" horiz-adv-x="1174" d="M1303 751L1224 476H216L295 751H1303Z" />
<glyph unicode="." glyph-name="period" horiz-adv-x="1547" d="M100 -282V1428H1435V-282H100ZM135 -242H1399V1398H135V-242ZM725 471H728L739 470V452Q741 382 741 326L734 324H728Q725 395 725 462V465V471ZM1224 471H1225L1239 470Q1238 461 1238 457Q1238
402 1241 326L1230 324H1226Q1224 382 1223 453Q1224 465 1224 471ZM790 466H794Q794 464 801 454Q797 436 797 424V406Q797 362 812 348H813Q834 348 848 465H850Q862 461 863 461Q857 403 857 375Q857 344 869 344Q871 328 871 324H863Q850 324 843 356H842Q831
328 815 328H810Q790 328 783 389Q782 393 782 411V422Q782 447 790 466ZM1094 466H1100Q1112 466 1128 438Q1140 416 1140 394V385Q1140 348 1100 327Q1093 324 1086 324H1079Q1049 324 1044 367V376Q1044 426 1084 464Q1092 466 1094 466ZM249 462H258Q286 457
286 422Q286 388 253 373Q241 368 226 366V329H225Q220 329 211 332V366H206L201 367Q201 378 206 386H211V386Q211 427 205 427Q199 434 199 438Q217 462 249 462ZM1059 376V368Q1059 347 1084 344Q1106 344 1121 371Q1126 379 1126 389V392Q1126 419 1100 445Q1097
445 1097 447Q1080 447 1062 397Q1059 386 1059 376ZM224 435Q225 400 225 388Q226 388 226 386Q255 392 263 403Q271 413 271 421Q271 439 256 442H250Q224 439 224 435ZM404 438Q423 438 432 389Q431 389 417 385Q411 418 404 418Q387 409 384 343Q385 329 385
328Q375 326 370 326Q357 395 357 413Q369 415 372 415V414Q372 410 375 395H376Q386 438 404 438ZM537 432Q557 432 570 400Q572 391 572 383V380Q572 344 537 327Q532 326 528 326Q501 330 501 364Q501 414 526 429Q528 430 537 432ZM614 432Q633 432 650 343Q651
343 651 336Q643 329 639 329Q624 391 616 409Q607 396 598 339Q597 339 593 329H586Q579 329 577 386Q575 400 575 409Q582 411 589 411Q592 394 592 391H593Q600 432 614 432ZM1185 432Q1201 432 1220 336Q1211 329 1207 329Q1192 395 1183 409Q1177 397 1164
335Q1161 329 1160 329H1154Q1147 329 1144 409Q1150 411 1159 411Q1160 392 1160 389H1161Q1168 432 1185 432ZM472 430Q490 425 490 413V412Q490 410 480 404H479Q475 411 466 411Q453 411 450 400Q450 395 479 394Q499 383 499 360Q499 335 479 326L471 324H466Q442
324 432 347V348Q433 351 441 359H442Q454 344 470 344Q484 348 484 360Q480 375 463 375Q435 375 435 397V400Q435 430 472 430ZM912 430Q925 430 932 412V411Q921 404 918 404Q918 410 907 411Q895 411 890 401V400Q890 395 919 394Q938 385 938 358Q938 332
914 324H906Q883 324 871 347V348Q879 359 881 359H882Q894 344 909 344Q923 348 923 360Q923 372 907 375Q882 375 877 386Q875 397 875 400Q875 430 912 430ZM1249 429V429Q1262 427 1263 427Q1262 409 1262 401V392Q1264 357 1275 357H1276Q1294 370 1294 424V424H1309V421Q1316
343 1316 333Q1316 287 1286 277Q1284 277 1281 277H1276Q1258 277 1253 296Q1252 301 1252 306V306Q1252 321 1255 321H1256Q1265 315 1268 315L1267 306Q1267 298 1276 297H1278Q1301 297 1301 339Q1301 344 1300 360H1299Q1291 336 1273 336H1272Q1253 336 1247
383V400Q1247 410 1249 429ZM331 428Q354 424 354 406V400Q354 380 315 364H305Q305 353 322 348Q333 348 343 366H347Q355 354 355 351Q338 329 325 329H318Q292 329 288 374Q288 414 320 427L331 428ZM681 428H692Q719 419 719 383Q718 362 718 348Q718 348 720
332Q711 324 707 324H706L704 335Q692 327 681 327H674Q652 330 652 348V356Q652 386 684 391Q695 390 704 385V386Q700 411 687 411Q678 411 669 401H666Q664 402 658 412V414Q670 428 681 428ZM983 428Q1007 424 1007 405Q1007 376 965 364H958V362Q965 348 974
348Q984 348 997 366H998Q999 366 1007 354Q1007 345 986 332Q982 329 977 329H970Q946 329 941 373Q941 413 971 427L983 428ZM516 365Q518 347 528 347H531Q555 354 557 382V385Q551 411 537 411H535Q522 411 517 379Q516 372 516 365ZM305 385Q324 385 338 403V405Q331
407 329 407Q313 407 305 388V385ZM958 385H961Q978 385 992 404Q986 407 983 407H980Q964 407 958 386V385ZM667 354V351Q667 348 677 345Q694 345 702 362Q694 369 683 369Q667 366 667 354ZM618 254Q631 254 633 220V217L627 216H625Q622 237 617 237Q611 237
609 218Q610 216 610 214Q610 204 612 175Q617 178 621 178H624V163L613 160Q618 103 618 91H607Q603 145 603 156H602Q597 154 592 154V171Q598 171 602 173Q599 194 599 225Q602 254 616 254H618ZM816 254Q828 254 832 217L824 216H822V217Q822 232 815 237Q807
232 807 222Q807 214 810 176Q810 176 810 175Q815 178 820 178H821L822 170V163Q821 163 810 160L812 157Q812 145 816 91H805Q805 97 801 156Q792 154 789 154V171L800 172Q797 218 797 224Q797 254 816 254ZM709 237H713H719V228Q719 167 722 96H711Q709 161
709 198V237ZM735 237H736H744V207Q744 175 747 96H736Q733 162 733 232V235Q733 237 735 237ZM529 234Q537 232 539 232Q537 203 537 190H539L551 192V175Q550 175 537 173L541 99L539 97H531Q528 126 526 172H513V188L524 189H526V207Q526 234 529 234ZM994 234Q997
234 1006 232Q1003 219 1003 203V190H1006L1018 192V175H1015L1003 173L1008 99L1003 97H997Q994 159 994 172H979L980 180V188L991 189H992V190Q992 211 994 234ZM1140 234Q1143 234 1152 232Q1150 214 1150 198V190H1152L1164 192V184V175Q1163 175 1150 173V167Q1150
152 1154 99L1152 97H1143L1139 172H1126V188L1137 189H1138L1140 234ZM404 231H414Q428 231 437 208Q431 202 431 199H428Q419 214 407 214Q390 214 372 188Q363 169 363 154V149Q363 120 387 114Q389 113 395 113Q426 116 426 133V143Q422 146 414 146H404V163Q432
163 437 154Q439 147 439 145Q437 120 437 116Q437 105 441 90Q440 90 433 85H432Q428 85 426 107Q420 99 397 95H395Q357 95 352 146V150Q352 208 397 229L404 231ZM866 199Q889 199 900 161V147Q900 113 866 97L859 96Q843 96 835 116Q833 127 833 133V137Q833
178 852 194Q860 199 866 199ZM943 199Q958 199 977 105H976Q971 101 967 101Q952 168 943 180Q936 173 920 101L918 100H914Q908 100 905 176L913 178H915Q918 162 918 145H919Q928 199 943 199ZM487 195Q507 191 507 175Q508 175 508 173Q508 150 473 137Q468
134 458 134V133Q458 122 475 116H476Q486 116 499 132H502Q502 130 508 123V122Q494 100 479 100H473Q454 100 446 132V147Q446 180 472 193Q477 195 487 195ZM1083 195H1094Q1110 195 1118 167Q1120 151 1121 149Q1120 143 1118 123Q1120 119 1120 100L1114 96H1111L1108
108Q1098 97 1083 97H1079Q1058 100 1058 117V125Q1061 157 1088 157Q1100 157 1109 149V152Q1109 177 1091 181H1088Q1082 181 1071 173H1070Q1069 173 1064 180V182Q1074 195 1083 195ZM634 193Q636 193 645 190Q645 116 659 116Q678 128 687 182Q688 187 688
193H689Q692 193 699 190Q696 166 696 145V133Q696 124 701 114Q696 107 696 103H694Q687 107 686 129H684Q680 114 665 100H656Q636 100 636 175V185L634 193ZM843 137Q845 114 858 114H859Q875 114 886 139Q889 147 889 150Q883 181 867 181H863Q848 181 843
137ZM457 150Q480 150 496 172Q494 178 485 178H482Q463 178 457 150ZM1068 122Q1071 114 1079 114H1085Q1099 114 1107 132Q1098 140 1090 140H1088Q1068 137 1068 122ZM507 45Q508 45 524 41Q520 3 519 -51Q519 -85 529 -120Q518 -130 517 -130H516Q513 -130
510 -117H508Q508 -125 487 -133Q454 -133 440 -91Q437 -79 437 -63Q437 -15 471 -5H475Q489 -5 504 -21V-20Q504 -12 507 45ZM316 39L331 34Q329 11 329 -2V-16Q342 -13 344 -13Q346 -33 346 -37H344Q335 -38 329 -38Q332 -101 334 -129Q322 -131 317 -131V-130Q312
-69 312 -42L310 -40H296V-16H311V-7Q311 39 316 39ZM674 39H675L690 34Q688 6 688 -11V-16Q702 -13 704 -13L705 -27V-37Q689 -38 689 -39Q689 -62 694 -129Q681 -131 677 -131V-130Q672 -55 672 -40H654V-16H671Q671 18 674 39ZM546 36Q555 36 557 22V21Q557
10 549 5H542Q534 10 534 22Q536 36 546 36ZM607 -5Q632 -5 648 -43Q650 -54 650 -60V-69Q650 -109 611 -129Q607 -131 598 -131Q571 -131 566 -90V-76Q566 -25 596 -7Q606 -5 607 -5ZM800 -5H805Q816 -5 816 -8V-10Q825 -5 835 -5Q860 -5 868 -49Q868 -60 869
-63Q866 -115 838 -127L830 -128H820L821 -136Q821 -142 822 -176H805Q800 -44 800 -5ZM915 -5Q938 -5 954 -40Q958 -53 958 -64Q958 -107 920 -129Q912 -131 906 -131Q884 -131 875 -104Q873 -92 873 -81Q873 -27 903 -7Q914 -5 915 -5ZM1117 -5Q1141 -5 1156
-40Q1160 -48 1160 -59V-67Q1160 -110 1121 -129Q1117 -131 1108 -131Q1080 -131 1076 -90V-76Q1076 -25 1106 -7Q1116 -5 1117 -5ZM1211 -5Q1228 -5 1238 -63H1239Q1247 -5 1266 -5H1267Q1291 -5 1307 -123H1305Q1294 -128 1292 -128H1291Q1272 -30 1266 -30Q1256
-52 1249 -112Q1246 -122 1239 -122Q1231 -122 1228 -107Q1215 -31 1209 -31Q1193 -89 1193 -124Q1183 -128 1176 -128V-127L1164 -23Q1177 -17 1181 -17Q1183 -25 1185 -48H1187Q1196 -5 1211 -5ZM258 -6Q282 -11 282 -27V-28Q281 -30 270 -37H267Q267 -30 254
-29H253Q240 -29 233 -39V-43Q233 -49 264 -49Q291 -61 291 -87V-92Q291 -120 269 -130Q264 -133 259 -133H250Q227 -133 211 -108Q211 -103 222 -92H225Q233 -110 255 -110Q273 -110 273 -90Q273 -75 252 -72Q225 -72 220 -60Q216 -52 216 -48V-40Q216 -6 258
-6ZM713 -7Q725 -11 728 -11Q727 -34 727 -45V-51Q727 -84 739 -95H744Q766 -77 766 -23V-13H783V-14Q791 -103 791 -117V-127Q791 -171 763 -187Q753 -191 747 -191Q725 -191 718 -171Q716 -167 716 -162V-153Q716 -138 720 -138L734 -145L733 -153V-157Q733 -165
744 -167H748Q768 -167 773 -134Q774 -130 774 -122V-102L773 -89H772Q762 -119 743 -119H741Q718 -119 711 -69Q710 -61 710 -49V-40Q710 -7 713 -7ZM1033 -8H1041Q1047 -8 1056 -17Q1067 -29 1067 -35Q1056 -48 1055 -48V-48Q1044 -33 1037 -33H1035Q1023 -38
1017 -61L1013 -82Q1013 -104 1027 -106H1030Q1041 -106 1064 -90H1065Q1071 -110 1071 -112Q1046 -130 1024 -130Q1001 -130 996 -84Q996 -50 1015 -20Q1027 -8 1033 -8ZM537 -10H549L555 -11Q555 -14 554 -19Q555 -86 558 -128H540L539 -120Q537 -52 537 -10ZM350
-11Q367 -16 367 -17V-37Q367 -104 379 -104H384Q401 -85 408 -49Q413 -39 414 -11H416Q431 -13 431 -17Q428 -59 428 -76V-86Q428 -96 433 -106Q433 -112 423 -124V-124Q411 -112 411 -99H410Q399 -128 382 -128H379Q350 -128 350 -35V-11ZM454 -67Q454 -101 484
-107H487Q499 -107 502 -81V-78Q502 -42 481 -30L475 -29H473Q456 -29 454 -64V-67ZM583 -82Q583 -104 598 -107H602Q617 -107 631 -78Q633 -74 633 -69V-60Q626 -29 609 -29H607Q586 -29 583 -82ZM816 -37Q816 -40 819 -104L826 -105Q848 -105 852 -63Q849 -29
835 -29H834Q824 -29 816 -37ZM890 -82V-87Q890 -104 905 -107H907Q923 -107 937 -81Q941 -73 941 -63Q935 -29 913 -29Q894 -29 890 -82ZM1092 -82Q1092 -107 1109 -107H1112Q1126 -107 1141 -77Q1143 -71 1143 -67V-60Q1135 -29 1118 -29H1117Q1097 -29 1092
-82ZM977 -96Q986 -96 989 -110V-115Q986 -128 977 -128Q968 -128 966 -113Q967 -96 977 -96ZM717 1368V1126H456Q402 1126 353 1088V1098Q500 1368 717 1368ZM800 1368H810Q942 1368 1089 1219Q1145 1151 1145 1126H800V1368ZM428 1042H717V948Q682 967 642 967H428Q409
967 409 986V1023Q412 1042 428 1042ZM800 1042H1183L1192 948V930Q1192 745 1061 632H894Q800 644 800 725V1042ZM325 967H334Q334 895 474 883H651Q717 883 717 818V715Q717 632 614 632H456Q325 752 325 911V967ZM754 604H763Q824 548 950 548V538Q842 501 763
501H754Q674 501 567 538V548Q699 548 754 604Z" />
<glyph unicode="/" glyph-name="slash" horiz-adv-x="810" d="M30 0L811 1443H1194L413 0H30Z" />
<glyph unicode="0" glyph-name="zero" horiz-adv-x="1803" d="M1831 1443Q1957 1443 2021 1353Q2085 1263 2049 1137L1810 305Q1774 179 1659 90Q1543 0 1417 0H385Q259 0 196 90Q132 180 167 305L406 1137Q442 1263 558 1353Q674 1443 799 1443H1831ZM920 1167Q891
1167 882 1137L643 305Q635 276 664 276H1296Q1326 276 1334 305L1573 1137Q1582 1167 1552 1167H920Z" />
<glyph unicode="1" glyph-name="one" horiz-adv-x="953" d="M883 0H407L734 1142Q737 1152 731 1159Q727 1167 716 1167H335L514 1443H995Q1120 1443 1182 1354Q1246 1266 1210 1142L883 0Z" />
<glyph unicode="2" glyph-name="two" horiz-adv-x="1803" d="M375 1030L407 1142Q443 1266 556 1354Q671 1443 795 1443H1836Q1960 1443 2022 1354Q2086 1266 2050 1142L1960 826Q1925 703 1810 614Q1696 525 1573 525H732Q707 525 699 500L635 276H1751L1772
0H80L223 500Q259 624 372 712Q487 801 611 801H1452Q1477 801 1484 826L1574 1142Q1582 1167 1557 1167H916Q891 1167 883 1142L851 1030H375Z" />
<glyph unicode="3" glyph-name="three" horiz-adv-x="1803" d="M384 1060L407 1142Q443 1266 556 1354Q671 1443 795 1443H1836Q1960 1443 2022 1354Q2086 1266 2050 1142L1997 955Q1956 813 1818 722Q1904 631 1863 488L1809 301Q1774 177 1659 88Q1546 0 1422
0H381Q257 0 193 88Q131 177 166 301L206 441H682L642 301Q635 276 660 276H1301Q1326 276 1333 301L1407 558Q1414 584 1389 584H707L786 859H1468Q1493 859 1501 885L1574 1142Q1582 1167 1557 1167H916Q891 1167 883 1142L860 1060H384Z" />
<glyph unicode="4" glyph-name="four" horiz-adv-x="1876" d="M1139 188H327Q168 188 139 332Q126 404 157 478Q189 556 259 611L1239 1284Q1480 1443 1684 1443Q1808 1443 1871 1354Q1934 1266 1898 1142L1704 463H1830L1951 188H1625L1571 0H1095L1336 842Q1373
971 1096 793L657 463H1028L1139 188Z" />
<glyph unicode="5" glyph-name="five" horiz-adv-x="1686" d="M198 276H1184Q1209 276 1216 301L1290 558Q1297 584 1272 584L247 583L494 1443H1803L1824 1167H891L802 859H1551Q1675 859 1739 771Q1802 683 1766 558L1692 301Q1657 177 1543 88Q1429 0 1305
0H19L198 276Z" />
<glyph unicode="6" glyph-name="six" horiz-adv-x="1803" d="M1003 859H1468Q1792 859 1855 771Q1919 682 1883 558L1809 301Q1774 177 1659 88Q1546 0 1422 0H381Q257 0 193 88Q131 177 166 301L407 1142Q443 1266 556 1354Q671 1443 795 1443H1836Q1960 1443
2022 1354Q2086 1266 2050 1142L2010 1001H1534L1574 1142Q1582 1167 1557 1167H916Q891 1167 883 1142L642 301Q635 276 660 276H1301Q1326 276 1333 301L1407 558Q1414 584 1389 584H738L1003 859Z" />
<glyph unicode="7" glyph-name="seven" horiz-adv-x="1723" d="M1643 0H1167L1494 1142Q1502 1167 1477 1167H836Q811 1167 803 1142L732 892H256L327 1142Q363 1266 476 1354Q591 1443 715 1443H1756Q1880 1443 1942 1354Q2006 1266 1970 1142L1643 0Z" />
<glyph unicode="8" glyph-name="eight" horiz-adv-x="1803" d="M916 1167Q891 1167 883 1142L810 885Q802 859 827 859H1468Q1493 859 1501 885L1574 1142Q1582 1167 1557 1167H916ZM748 584Q723 584 716 558L642 301Q635 276 660 276H1301Q1326 276 1333 301L1407
558Q1414 584 1389 584H748ZM398 722Q389 731 381 742Q318 830 354 955L407 1142Q443 1266 556 1354Q671 1443 795 1443H1836Q1960 1443 2022 1354Q2086 1266 2050 1142L1997 955Q1961 830 1847 742Q1833 731 1819 722Q1827 712 1835 701Q1898 612 1863 488L1809
301Q1774 177 1659 88Q1546 0 1422 0H381Q257 0 193 88Q131 177 166 301L220 488Q255 612 369 701Q383 712 398 722Z" />
<glyph unicode="9" glyph-name="nine" horiz-adv-x="1803" d="M1196 524H531Q407 524 344 612Q281 701 317 825L407 1142Q443 1266 558 1355Q671 1443 795 1443H1836Q1960 1443 2024 1355Q2086 1266 2050 1142L1809 301Q1774 177 1661 89Q1546 0 1422 0H381Q257
0 195 89Q131 177 166 301L207 442H683L642 301Q635 276 660 276H1301Q1326 276 1333 301L1574 1142Q1582 1167 1557 1167H916Q891 1167 883 1142L793 825Q785 799 810 799H1461L1196 524Z" />
<glyph unicode=":" glyph-name="colon" horiz-adv-x="536" d="M456 0H80L159 276H535L456 0ZM682 788H306L385 1064H761L682 788Z" />
<glyph unicode=";" glyph-name="semicolon" horiz-adv-x="536" d="M204 0H80L159 276H535L456 0L274 -286H52L204 0ZM682 788H306L385 1064H761L682 788Z" />
<glyph unicode="&lt;" glyph-name="less" horiz-adv-x="1044" d="M1055 141L207 636L256 805L1388 1301L1300 994L676 720L1143 448L1055 141Z" />
<glyph unicode="=" glyph-name="equal" horiz-adv-x="1068" d="M1140 531L1061 256H153L232 531H1140ZM1287 1041L1208 766H300L379 1041H1287Z" />
<glyph unicode="&gt;" glyph-name="greater" horiz-adv-x="1044" d="M153 448L776 720L310 994L398 1301L1246 805L1197 636L65 141L153 448Z" />
<glyph unicode="?" glyph-name="question" horiz-adv-x="1303" d="M344 920L407 1142Q443 1266 556 1354Q671 1443 795 1443H1336Q1460 1443 1522 1354Q1586 1266 1550 1142L1477 885Q1441 760 1327 672Q1213 584 1089 584H973Q948 584 941 558L904 430H528L565
558Q601 682 715 770Q829 859 952 859H1068Q1093 859 1101 885L1174 1142Q1182 1167 1157 1167H816Q791 1167 783 1142L720 920H344ZM781 0H405L484 276H860L781 0Z" />
<glyph unicode="@" glyph-name="at" horiz-adv-x="1819" d="M1321 -180T964 -180Q723 -180 543 -91Q345 8 272 194Q192 392 268 655Q366 998 678 1241Q990 1483 1333 1483Q1690 1472 1857 1251Q1939 1141 1959 986Q1978 833 1929 676Q1879 512 1765 384Q1640 244
1459 172Q1375 138 1301 132Q1211 125 1159 162Q1114 195 1107 247Q986 190 878 201Q730 215 671 342Q606 480 680 673Q751 857 908 987Q1077 1126 1245 1126Q1356 1126 1428 1061L1435 1079L1645 1050Q1461 610 1348 352Q1382 355 1427 373Q1661 466 1720 713Q1774
939 1658 1093Q1531 1262 1270 1262Q1018 1262 789 1085Q561 907 489 655Q433 459 488 318Q542 184 689 111Q831 40 1027 40Q1317 40 1563 182L1636 0Q1321 -180 964 -180ZM1267 682T1273 705Q1298 793 1271 851Q1248 900 1195 906H1182Q1110 906 1027 838Q934
761 893 652Q851 545 885 474Q908 425 960 420Q1045 418 1129 487Q1209 553 1251 646Q1267 682 1273 705Z" />
<glyph unicode="A" glyph-name="A" horiz-adv-x="1803" d="M977 737H1458L1573 1137Q1576 1149 1570 1158Q1564 1167 1552 1167H920Q908 1167 896 1159V1158Q886 1150 882 1137L556 0H80L406 1137Q442 1263 558 1353Q674 1443 799 1443H1831Q1958 1443 2021 1353Q2085
1264 2049 1137L1723 0H1247L1379 462H698L977 737Z" />
<glyph unicode="B" glyph-name="B" horiz-adv-x="1803" d="M845 276H1301Q1326 276 1333 301L1407 558Q1414 584 1389 584H733L1012 859H1468Q1493 859 1501 885L1574 1142Q1582 1167 1557 1167H891L556 0H80L494 1443H1836Q1960 1443 2022 1354Q2086 1266 2050
1142L1993 943Q1946 777 1767 721Q1914 666 1866 500L1809 301Q1774 177 1659 88Q1546 0 1422 0H566L845 276Z" />
<glyph unicode="C" glyph-name="C" horiz-adv-x="1803" d="M1866 500L1810 305Q1774 179 1659 90Q1543 0 1417 0H385Q259 0 196 90Q132 180 167 305L406 1137Q442 1263 558 1353Q674 1443 799 1443H1831Q1957 1443 2021 1353Q2085 1263 2049 1137L1993 943H1517L1573
1137Q1582 1167 1552 1167H920Q891 1167 882 1137L643 305Q635 276 664 276H1296Q1326 276 1334 305L1390 500H1866Z" />
<glyph unicode="D" glyph-name="D" horiz-adv-x="1803" d="M845 276H1114Q1202 276 1282 338Q1362 400 1387 488L1521 955Q1546 1042 1502 1105Q1457 1167 1370 1167H891L556 0H80L494 1443H1649Q1850 1443 1951 1299Q2054 1156 1997 955L1863 488Q1805 287 1620
144Q1436 0 1235 0H566L845 276Z" />
<glyph unicode="E" glyph-name="E" horiz-adv-x="1618" d="M556 0H80L494 1443H1952L1873 1167H891L556 0ZM845 276H1617L1538 0H566L845 276ZM1012 859H1668L1589 584H733L1012 859Z" />
<glyph unicode="F" glyph-name="F" horiz-adv-x="1407" d="M1012 859H1551L1472 584H733L1012 859ZM556 0H80L494 1443H1836L1757 1167H891L556 0Z" />
<glyph unicode="G" glyph-name="G" horiz-adv-x="1803" d="M1247 859H1969L1810 305Q1775 180 1659 90Q1543 0 1417 0H385Q259 0 196 90Q132 180 167 305L406 1137Q442 1263 558 1353Q674 1443 799 1443H1831Q1957 1443 2021 1353Q2085 1264 2049 1137L2004 980H1528L1573
1137Q1582 1167 1552 1167H920Q891 1167 882 1137L643 305Q635 276 664 276H1296Q1326 276 1334 305L1414 584H968L1247 859Z" />
<glyph unicode="H" glyph-name="H" horiz-adv-x="1655" d="M556 0H80L494 1443H970L556 0ZM1012 859H1345L1513 1443H1989L1575 0H1099L1266 584H733L1012 859Z" />
<glyph unicode="I" glyph-name="I" horiz-adv-x="636" d="M556 0H80L494 1443H970L556 0Z" />
<glyph unicode="J" glyph-name="J" horiz-adv-x="1453" d="M263 637H739L643 305Q635 276 664 276H946Q976 276 984 305L1311 1443H1787L1460 305Q1425 180 1309 90Q1193 0 1067 0H385Q260 0 196 90Q132 180 167 305L263 637Z" />
<glyph unicode="K" glyph-name="K" horiz-adv-x="1803" d="M556 0H80L494 1443H970L556 0ZM1012 859H1428Q1493 859 1512 925L1661 1443H2137L1993 943Q1946 777 1767 721Q1914 666 1866 500L1723 0H1247L1396 518Q1414 584 1349 584H733L1012 859Z" />
<glyph unicode="L" glyph-name="L" horiz-adv-x="1401" d="M494 1443H970L635 276H1422L1343 0H80L494 1443Z" />
<glyph unicode="M" glyph-name="M" horiz-adv-x="2403" d="M947 0L1273 1138Q1282 1167 1252 1167H920Q891 1167 882 1138L556 0H80L406 1138Q442 1264 558 1353Q673 1443 799 1443H1331Q1457 1443 1521 1353Q1554 1307 1561 1252Q1599 1307 1658 1353Q1773 1443
1899 1443H2431Q2557 1443 2621 1353Q2685 1264 2649 1138L2323 0H1847L2173 1138Q2182 1167 2152 1167H1820Q1791 1167 1782 1138L1456 0H947Z" />
<glyph unicode="N" glyph-name="N" horiz-adv-x="1655" d="M556 0H80L494 1443H693L1316 758L1513 1443H1989L1575 0H1392L758 703L556 0Z" />
<glyph unicode="O" glyph-name="O" horiz-adv-x="1803" d="M835 276H1296Q1326 276 1334 305L1573 1137Q1582 1167 1552 1167H920Q891 1167 882 1137L556 0H356Q252 10 196 90Q132 180 167 305L406 1137Q442 1263 558 1353Q674 1443 799 1443H1831Q1957 1443 2021
1353Q2085 1263 2049 1137L1810 305Q1774 179 1659 90Q1543 0 1417 0H566L835 276Z" />
<glyph unicode="P" glyph-name="P" horiz-adv-x="1759" d="M957 665H1411Q1437 665 1444 690L1573 1142Q1581 1167 1555 1167H891L556 0H80L494 1443H1834Q1959 1443 2021 1354Q2084 1266 2048 1142L1919 690Q1883 566 1770 477Q1657 389 1532 389H678L957 665Z" />
<glyph unicode="Q" glyph-name="Q" horiz-adv-x="1808" d="M1355 0H566L835 276H1160L1034 455L1245 617L1372 436L1573 1137Q1582 1167 1552 1167H920Q891 1167 882 1137L556 0H356Q252 10 196 90Q132 180 167 305L406 1137Q442 1263 558 1353Q674 1443 799 1443H1831Q1957
1443 2021 1353Q2085 1263 2049 1137L1810 305Q1774 179 1659 90Q1645 79 1630 69L1752 -103L1542 -265L1355 0Z" />
<glyph unicode="R" glyph-name="R" horiz-adv-x="1828" d="M1003 841H1463Q1488 841 1496 867L1574 1142Q1582 1167 1557 1167H891L556 0H80L494 1443H1836Q1960 1443 2022 1354Q2086 1266 2050 1142L1977 885Q1941 761 1827 672Q1712 584 1589 584H1432L1848
0H1258L842 584H733L1003 841Z" />
<glyph unicode="S" glyph-name="S" horiz-adv-x="1803" d="M682 441L642 301Q635 276 660 276H1301Q1326 276 1333 301L1407 558Q1414 584 1389 584H548Q424 584 361 672Q298 760 334 885L407 1142Q443 1266 556 1354Q671 1443 795 1443H1836Q1960 1443 2022 1354Q2086
1266 2050 1142L2018 1030H1542L1574 1142Q1582 1167 1557 1167H916Q891 1167 883 1142L810 885Q802 859 827 859H1668Q1792 859 1855 771Q1919 682 1883 558L1809 301Q1774 177 1659 88Q1546 0 1422 0H381Q257 0 193 88Q131 177 166 301L206 441H682Z" />
<glyph unicode="T" glyph-name="T" horiz-adv-x="1715" d="M327 1176L404 1443H2139L2062 1176H1432L1095 0H620L957 1176H327Z" />
<glyph unicode="U" glyph-name="U" horiz-adv-x="1803" d="M835 276H1296Q1326 276 1334 305L1661 1443H2137L1810 305Q1774 179 1659 90Q1543 0 1417 0H566L835 276ZM556 0H356Q252 10 196 89Q131 178 167 304L494 1443H970L556 0Z" />
<glyph unicode="V" glyph-name="V" horiz-adv-x="1793" d="M881 1443L1083 645L1740 1443H2217L982 0H813L404 1443H881Z" />
<glyph unicode="W" glyph-name="W" horiz-adv-x="2403" d="M835 276H996Q1026 276 1034 305L1361 1443H1870L1543 305Q1535 276 1564 276H1896Q1926 276 1934 305L2261 1443H2737L2410 305Q2374 179 2259 90Q2143 0 2017 0H1485Q1359 0 1296 90Q1263 136 1257
191Q1218 136 1159 90Q1043 0 917 0H566L835 276ZM556 0H356Q252 10 196 89Q131 178 167 304L494 1443H970L556 0Z" />
<glyph unicode="X" glyph-name="X" horiz-adv-x="1803" d="M460 743Q425 764 399 800Q335 889 371 1015L494 1443H970L816 905Q807 876 836 876H1468Q1498 876 1507 905L1661 1443H2137L2014 1015Q1978 889 1862 800Q1816 764 1768 743Q1804 721 1829 685Q1894
596 1858 470L1723 0H1247L1411 571Q1419 600 1389 600H757Q728 600 720 571L556 0H80L215 470Q251 596 366 685Q413 721 460 743Z" />
<glyph unicode="Y" glyph-name="Y" horiz-adv-x="1803" d="M1380 500H528Q402 500 339 590Q275 679 311 805L494 1443H970L787 805Q779 776 808 776H1260L1380 500ZM1661 1443H2137L1810 305Q1774 179 1659 90Q1543 0 1417 0H154L233 276H1296Q1326 276 1334 305L1661
1443Z" />
<glyph unicode="Z" glyph-name="Z" horiz-adv-x="1803" d="M417 1177L494 1443H2137L2081 1248L857 266H1799L1723 0H80L136 195L1369 1177H417Z" />
<glyph unicode="[" glyph-name="bracketleft" horiz-adv-x="724" d="M715 -100H260Q174 -100 130 -39Q87 23 111 109L463 1334Q487 1420 566 1482Q645 1543 731 1543H1186L1107 1267H919L606 176H794L715 -100Z" />
<glyph unicode="\" glyph-name="backslash" horiz-adv-x="710" d="M396 0L444 1443H727L680 0H396Z" />
<glyph unicode="]" glyph-name="bracketright" horiz-adv-x="724" d="M30 176H218L531 1267H343L422 1543H877Q963 1543 1008 1482Q1051 1420 1027 1334L675 109Q651 23 572 -39Q492 -100 406 -100H-49L30 176Z" />
<glyph unicode="^" glyph-name="asciicircum" horiz-adv-x="1036" d="M885 616L803 997L504 616H197L846 1442H1015L1193 616H885Z" />
<glyph unicode="_" glyph-name="underscore" horiz-adv-x="1068" d="M1088 0L1009 -275H-99L-20 0H1088Z" />
<glyph unicode="`" glyph-name="grave" horiz-adv-x="746" d="M886 1474L996 1151H750L503 1474H886Z" />
<glyph unicode="a" glyph-name="a" horiz-adv-x="1659" d="M1201 428H704Q679 428 672 403L637 281Q629 256 654 256H1151Q1175 256 1184 280L1326 773Q1333 798 1307 798H810Q785 798 778 773L766 732H290L299 763Q334 887 448 976Q562 1064 686 1064H1583Q1708
1064 1771 976Q1833 887 1798 763L1579 0H1304L1326 77Q1218 0 1103 0H381Q257 0 193 88Q131 177 166 301L184 363Q220 487 333 576Q447 664 571 664H1094L1201 428Z" />
<glyph unicode="b" glyph-name="b" horiz-adv-x="1659" d="M642 300Q636 276 660 276H1157Q1183 276 1190 301L1323 763Q1330 788 1304 788H797L1061 1064H1583Q1707 1064 1771 976Q1833 887 1798 763L1665 301Q1630 177 1516 88Q1402 0 1278 0H556Q441 0 378
77L356 0H80L494 1443H970L642 300Z" />
<glyph unicode="c" glyph-name="c" horiz-adv-x="1659" d="M1707 448L1665 301Q1630 177 1516 88Q1403 0 1278 0H381Q257 0 193 88Q131 177 166 301L299 763Q334 887 448 976Q562 1064 686 1064H1583Q1708 1064 1771 976Q1833 887 1798 763L1756 616H1281L1323
763Q1326 773 1320 781Q1314 788 1304 788H807Q797 788 787 781Q778 773 775 763L642 301Q639 291 644 283Q650 276 660 276H1157Q1167 276 1177 283Q1187 291 1190 301L1232 448H1707Z" />
<glyph unicode="d" glyph-name="d" horiz-adv-x="1659" d="M1517 1443H1993L1579 0H1303L1325 77Q1218 0 1103 0H381Q257 0 193 88Q131 177 166 301L299 763Q334 887 448 976Q562 1064 686 1064H1208L1314 788H807Q781 788 774 763L641 301Q634 276 660 276H1157Q1181
276 1189 300L1517 1443Z" />
<glyph unicode="e" glyph-name="e" horiz-adv-x="1659" d="M642 301Q635 276 660 276H1157Q1183 276 1190 301L1206 357H1681L1665 301Q1630 177 1516 88Q1402 0 1278 0H381Q257 0 193 88Q131 177 166 301L299 763Q334 887 448 976Q562 1064 686 1064H1583Q1707
1064 1771 976Q1833 887 1798 763L1700 422H687L940 642H1288L1323 763Q1330 788 1304 788H807Q782 788 775 763L642 301Z" />
<glyph unicode="f" glyph-name="f" horiz-adv-x="1281" d="M556 0H80L407 1142Q443 1266 557 1354Q671 1443 795 1443H1394Q1518 1443 1581 1354Q1644 1266 1608 1142L1567 996H1091L1132 1142Q1140 1167 1115 1167H916Q891 1167 883 1142L806 871H1438L1259 596H727L556
0Z" />
<glyph unicode="g" glyph-name="g" horiz-adv-x="1659" d="M1143 171H430Q306 171 242 259Q180 347 215 472L299 763Q334 887 448 976Q562 1064 686 1064H1408Q1523 1064 1587 987L1609 1064H1884L1596 60Q1561 -64 1447 -153Q1334 -241 1209 -241H312Q188 -241
124 -153Q62 -64 97 60L117 128H593L573 60Q566 35 591 35H1088Q1114 35 1121 60L1323 764Q1328 788 1304 788H807Q782 788 775 763L691 472Q684 446 709 446H1032L1143 171Z" />
<glyph unicode="h" glyph-name="h" horiz-adv-x="1659" d="M556 0H80L494 1443H970L556 0ZM1061 1064H1583Q1707 1064 1771 976Q1833 887 1798 763L1579 0H1104L1323 763Q1330 788 1304 788H791L1061 1064Z" />
<glyph unicode="i" glyph-name="i" horiz-adv-x="636" d="M556 0H80L385 1064H861L556 0ZM891 1167H415L494 1443H970L891 1167Z" />
<glyph unicode="j" glyph-name="j" horiz-adv-x="646" d="M-135 -103H30Q60 -103 69 -74L395 1064H871L545 -74Q509 -200 393 -289Q277 -379 151 -379H-214L-135 -103ZM901 1167H425L504 1443H980L901 1167Z" />
<glyph unicode="k" glyph-name="k" horiz-adv-x="1529" d="M556 0H80L494 1443H970L556 0ZM947 666H1129Q1195 666 1214 731L1309 1064H1784L1709 801Q1673 677 1560 588Q1515 553 1468 532Q1503 511 1527 476Q1590 387 1554 263L1479 0H1004L1099 333Q1118 398
1052 398H685L947 666Z" />
<glyph unicode="l" glyph-name="l" horiz-adv-x="636" d="M494 1443H970L556 0H80L494 1443Z" />
<glyph unicode="m" glyph-name="m" horiz-adv-x="2333" d="M556 0H80L385 1064H861L556 0ZM1061 1064H1308Q1469 1064 1520 929Q1649 1064 1810 1064H2257Q2381 1064 2444 976Q2507 887 2472 763L2253 0H1777L1996 763Q2003 788 1978 788H1656Q1630 788 1623 763L1404
0H928L1147 763Q1154 788 1129 788H797L1061 1064Z" />
<glyph unicode="n" glyph-name="n" horiz-adv-x="1659" d="M556 0H80L385 1064H861L556 0ZM1061 1064H1583Q1707 1064 1771 976Q1833 887 1798 763L1579 0H1103L1322 763Q1329 788 1304 788H797L1061 1064Z" />
<glyph unicode="o" glyph-name="o" horiz-adv-x="1659" d="M1583 1064Q1708 1064 1771 976Q1833 887 1798 763L1665 301Q1630 177 1516 88Q1402 0 1278 0H381Q257 0 193 88Q131 177 166 301L299 763Q334 887 448 976Q562 1064 686 1064H1583ZM807 788Q782 788
775 763L642 301Q635 276 660 276H1157Q1183 276 1190 301L1323 763Q1330 788 1304 788H807Z" />
<glyph unicode="p" glyph-name="p" horiz-adv-x="1659" d="M1061 1064H1583Q1707 1064 1771 976Q1833 887 1798 763L1665 301Q1630 177 1516 88Q1402 0 1278 0H756Q641 0 578 77L447 -381H-29L385 1064H861L642 300Q636 276 660 276H1157Q1183 276 1190 301L1323
763Q1330 788 1304 788H793L1061 1064Z" />
<glyph unicode="q" glyph-name="q" horiz-adv-x="1659" d="M1318 788H807Q781 788 774 763L641 301Q634 276 660 276H1157Q1181 276 1189 300L1408 1064H1884L1470 -381H994L1125 77Q1018 0 903 0H381Q257 0 193 88Q131 177 166 301L299 763Q334 887 448 976Q562
1064 686 1064H1208L1318 788Z" />
<glyph unicode="r" glyph-name="r" horiz-adv-x="1601" d="M556 0H80L385 1064H861L556 0ZM1061 1064H1525Q1649 1064 1712 976Q1775 887 1740 763L1638 408H1162L1264 763Q1271 788 1246 788H792L1061 1064Z" />
<glyph unicode="s" glyph-name="s" horiz-adv-x="1759" d="M672 405H472Q367 414 309 493Q247 582 279 695L299 763Q334 887 448 976Q562 1064 686 1064H1683Q1807 1064 1870 976H1871Q1933 887 1898 763L1888 728H1413L1429 783Q1431 793 1426 801Q1421 808 1410
808H813Q803 808 793 801Q783 793 781 783L672 405ZM945 659H1567Q1692 659 1755 571Q1817 483 1782 359L1765 301Q1730 177 1616 88Q1503 0 1378 0H381Q257 0 193 88Q131 177 166 301L183 359H659L637 281Q634 271 638 263Q644 256 654 256H1251Q1261 256 1271
263Q1282 271 1285 281L1313 379Q1316 389 1310 397Q1304 404 1294 404V405H682L945 659Z" />
<glyph unicode="t" glyph-name="t" horiz-adv-x="1313" d="M494 1443H970L861 1064H1574L1395 788H782L642 301Q635 276 660 276H865Q891 276 898 301L954 496H1430L1374 301Q1339 177 1224 88Q1111 0 986 0H381Q257 0 195 89Q131 177 166 301L494 1443Z" />
<glyph unicode="u" glyph-name="u" horiz-adv-x="1659" d="M1409 1064H1884L1665 301Q1630 177 1516 88Q1402 0 1278 0H381Q257 0 193 88Q131 177 166 301L385 1064H861L642 301Q635 276 660 276H1157Q1183 276 1190 301L1409 1064Z" />
<glyph unicode="v" glyph-name="v" horiz-adv-x="1713" d="M742 1064L1047 495L1571 1064H2028L990 0H821L295 1064H742Z" />
<glyph unicode="w" glyph-name="w" horiz-adv-x="2718" d="M1402 150Q1374 117 1336 88Q1222 0 1098 0H381Q257 0 193 88Q131 177 166 301L385 1064H861L642 301Q635 276 660 276H1157Q1183 276 1190 301L1409 1064H1920L1701 301Q1694 276 1719 276H2216Q2242
276 2249 301L2468 1064H2943L2724 301Q2689 177 2575 88Q2461 0 2337 0H1620Q1496 0 1432 88Q1412 117 1402 150Z" />
<glyph unicode="x" glyph-name="x" horiz-adv-x="1659" d="M397 532Q362 553 337 588Q274 677 310 801L385 1064H861L751 681Q744 656 769 656H1266Q1292 656 1299 681L1409 1064H1884L1809 801Q1773 677 1660 588Q1615 553 1568 532Q1603 511 1627 476Q1690 387
1654 263L1579 0H1104L1214 383Q1221 408 1195 408H698Q673 408 666 383L556 0H80L155 263Q191 387 304 476Q350 511 397 532Z" />
<glyph unicode="y" glyph-name="y" horiz-adv-x="1659" d="M969 230H447Q323 230 260 318Q196 406 232 531L385 1064H861L708 531Q701 505 726 505H1239L969 230ZM1409 1064H1884L1596 59Q1560 -65 1447 -154Q1334 -242 1209 -242H312Q188 -242 125 -154Q61 -65
97 59L119 137H595L573 59Q566 34 591 34H1088Q1114 34 1121 59L1409 1064Z" />
<glyph unicode="z" glyph-name="z" horiz-adv-x="1624" d="M312 808L385 1064H1849L1793 869L857 266H1620L1544 0H80L136 195L1075 808H312Z" />
<glyph unicode="{" glyph-name="braceleft" horiz-adv-x="755" d="M1141 1277H1142Q1009 1277 1000 1245Q919 961 889 895Q841 795 756 721Q799 647 789 547Q781 482 700 198Q691 168 814 166H823L746 -100H447Q325 -100 267 -7Q211 80 246 201L248 208H249Q316
444 316 490Q314 556 254 608L319 834Q409 886 448 953Q475 999 543 1235H542L544 1242Q579 1363 685 1450Q796 1543 918 1543H1217L1141 1277Z" />
<glyph unicode="|" glyph-name="bar" horiz-adv-x="636" d="M527 -100H51L522 1543H998L527 -100Z" />
<glyph unicode="}" glyph-name="braceright" horiz-adv-x="755" d="M422 1543H721Q843 1543 902 1450Q958 1363 923 1242L921 1235H920Q852 999 853 953Q854 886 914 834L849 608Q759 556 721 490Q693 444 626 208H627L625 201Q590 80 484 -7Q372 -100 250 -100H-49L28
166H137Q160 168 169 198Q250 482 280 547Q328 647 413 721Q370 795 380 895Q388 961 469 1245Q478 1277 445 1277H346L422 1543Z" />
<glyph unicode="~" glyph-name="asciitilde" horiz-adv-x="1152" d="M953 449T746 592Q539 736 233 535L316 824Q622 1025 829 881Q1035 737 1341 939L1258 650Q953 449 746 592Z" />
</font>
</defs>
</svg>
